Game of Thrones - Season 4 Trailer #3 Secrets 720p .MP4

seeders: 0
leechers: 1
updated:
Added in Movies > Trailer
Torrent verified. Downloaded 10 times.

DownloadFast Safe Anonymous
movies, software, shows...
Game of Thrones - Season 4 Trailer #3 Secrets 720p .MP4 (Size: 20.89 MB)
  Game of Thrones Season 4_ Trailer #3 - Secrets (HBO).mp4 20.89 MB

Description

Video
ID : 1
Format : AVC
Format/Info : Advanced Video Codec
Format profile : [email protected]
Format settings, CABAC : Yes
Format settings, ReFrames : 1 frame
Codec ID : avc1
Codec ID/Info : Advanced Video Coding
Duration : 1mn 32s
Bit rate : 1 708 Kbps
Maximum bit rate : 4 631 Kbps
Width : 1 280 pixels
Height : 720 pixels
Display aspect ratio : 16:9
Frame rate mode : Constant
Frame rate : 29.970 fps
Color space : YUV
Chroma subsampling : 4:2:0
Bit depth : 8 bits
Scan type : Progressive
Bits/(Pixel*Frame) : 0.062
Stream size : 18.7 MiB (90%)
Tagged date : UTC 2014-03-10 03:28:21

Audio
ID : 2
Format : AAC
Format/Info : Advanced Audio Codec
Format profile : LC
Codec ID : 40
Duration : 1mn 32s
Bit rate mode : Variable
Bit rate : 192 Kbps
Maximum bit rate : 201 Kbps
Channel(s) : 2 channels
Channel positions : Front: L R
Sampling rate : 44.1 KHz
Compression mode : Lossy
Stream size : 2.11 MiB (10%)
Title : IsoMedia File Produced by Google, 5-11-2011
Encoded date : UTC 2014-03-10 03:28:20
Tagged date : UTC 2014-03-10 03:28:21

Sharing Widget


Download torrent
20.89 MB
seeders:0
leechers:1
Game of Thrones - Season 4 Trailer #3 Secrets 720p .MP4



To share this torrent use the code below and insert it into comments, status messages, forum posts or your signature.

Torrent: Game of Thrones - Season 4 Trailer #3 Secrets 720p .MP4

Trackers

tracker name
udp://tracker.istole.it:80/announce
udp://tracker.openbittorrent.com:80/announce
udp://tracker.publicbt.com:80/announce
µTorrent compatible trackers list

Locations

name
ThePirateBay
Torrent hash: DAEA3D9BC2168A68095E0B3567F40E2C26D1FFD4

All Comments

please, leave only comments related to that torrent
Sign In

audio: 10video: 9
Excellent A/V! Thanks!
audio: 9video: 9
Thanks for the nice work man!

User Opinions

wee_seamus31116.55K, Cat06047256, onge064847, the_platypus4562, mak10233321, tepisquintla2916, kwallo2714, sandalos2197, trezegoool2043, sababashir693 ... And 1 more
Report a bug Open chat