Modern Family S07E18 HDTV x264-FLEET[rartv]

seeders: 409
leechers: 33
updated:
Added by z0n3212.57M in TV
Torrent verified. Downloaded 172,141 times.

DownloadFast Safe Anonymous
movies, software, shows...
  • View all Modern Family episodes
  • Episode title: The Party
  • Episode: S07E18
  • Air date: 06 April 2016
  • IMDb link: 1442437
  • TVmaze link: Modern Family
  • Original run: 23 September 2009 — Present
  • Summary:

    Three different, but related families face trials and tribulations in their own uniquely comedic ways.

    Written by Eppo77.2K
Available in versions: 1080p720p480pHDTVWEBRipx264x265
Modern Family S07E18 HDTV x264-FLEET[rartv] (Size: 155.66 MB)
  Modern.Family.S07E18.HDTV.x264-FLEET.mp4 155.66 MB
  rarbg.com.txt 34 bytes
  Modern.Family.S07E18.HDTV.x264-FLEET.nfo 696 bytes

Description


http://rarbg.to
Modern.Family.S07E18.HDTV.x264-FLEET[rartv]

image
Screens :

image
Mediainfo :

Video
ID : 1
Format : AVC
Format/Info : Advanced Video Codec
Format profile : [email protected]
Format settings, CABAC : Yes
Format settings, ReFrames : 5 frames
Codec ID : avc1
Codec ID/Info : Advanced Video Coding
Duration : 20mn 44s
Bit rate : 932 Kbps
Width : 720 pixels
Height : 404 pixels
Display aspect ratio : 16:9
Frame rate mode : Constant
Frame rate : 23.976 (24000/1001) fps
Color space : YUV
Chroma subsampling : 4:2:0
Bit depth : 8 bits
Scan type : Progressive
Bits/(Pixel*Frame) : 0.134
Stream size : 138 MiB (89%)
Writing library : x264 core 148 r2665 a01e339
Encoding settings : cabac=1 / ref=5 / deblock=1:0:0 / analyse=0x3:0x113 / me=umh / subme=8 / psy=1 / psy_rd=1.00:0.00 / mixed_ref=1 / me_range=16 / chroma_me=1 / trellis=1 / 8x8dct=1 / cqm=0 / deadzone=21,11 / fast_pskip=1 / chroma_qp_offset=-2 / threads=13 / lookahead_threads=2 / sliced_threads=0 / nr=0 / decimate=1 / interlaced=0 / bluray_compat=0 / constrained_intra=0 / bframes=3 / b_pyramid=2 / b_adapt=2 / b_bias=0 / direct=3 / weightb=1 / open_gop=0 / weightp=2 / keyint=250 / keyint_min=23 / scenecut=40 / intra_refresh=0 / rc_lookahead=50 / rc=crf / mbtree=1 / crf=19.0 / qcomp=0.60 / qpmin=0 / qpmax=69 / qpstep=4 / ip_ratio=1.40 / aq=1:1.00
Encoded date : UTC 2011-09-08 11:43:25
Tagged date : UTC 2011-09-08 11:43:25
Color range : Limited
Matrix coefficients : BT.709

Audio
ID : 2
Format : AAC
Format/Info : Advanced Audio Codec
Format profile : LC
Codec ID : 40
Duration : 20mn 44s
Bit rate mode : Variable
Bit rate : 111 Kbps
Maximum bit rate : 204 Kbps
Channel(s) : 2 channels
Channel positions : Front: L R
Sampling rate : 48.0 KHz
Frame rate : 46.875 fps (1024 spf)
Compression mode : Lossy
Stream size : 16.5 MiB (11%)
Encoded date : UTC 2011-09-08 11:43:25
Tagged date : UTC 2011-09-08 11:43:25

Related Torrents

torrent name size files age seed leech

Sharing Widget


Download torrent
155.66 MB
seeders:382
leechers:21
Modern Family S07E18 HDTV x264-FLEET[rartv]



To share this torrent use the code below and insert it into comments, status messages, forum posts or your signature.

Torrent: Modern Family S07E18 HDTV x264-FLEET[rartv]

Trackers

tracker name
udp://tracker.openbittorrent.com:80/announce
udp://tracker.publicbt.com:80/announce
http://retracker.krs-ix.ru/announce
udp://tracker.coppersurfer.tk:6969/announce
http://tracker.aletorrenty.pl:2710/announce
udp://glotorrents.pw:6969/announce
http://announce.xxx-tracker.com:2710/announce
http://thetracker.org/announce
http://tracker.dler.org:6969/announce
http://glotorrents.com:6969/announce
µTorrent compatible trackers list

Locations

name
KickassTorrents
Torrent hash: 21AD892E19251275FEAEFDC7B09DC0B7CE34D385

Top Comments

5
masterur4906
audio: 9video: 9
good
2
Alpha_Flight32.05K
audio: 10video: 10
Love this show! Thank you for the great copy z0n3212.57M
2
Alpha_Flight32.05K
Love this show! Thank you for the great copy z0n3212.57M
2
anonymous
It's easy when you cut off the end of the show...

All Comments

audio
9/10
video
9/10
please, leave only comments related to that torrent
Sign In

User Opinions

HalfMelted11.18K, Stoned625092, bunicuta2314, zoetrope2281, Agent 47988, nevena840, fothadee600, kasunmalinda296, katja07280, Chapito76 ... And 1828 more
BbKush1632, zodiac25836, ROHIT30695406, orangejelibe79, condostorm33
Report a bug Open chat